Power Rangers 2017 1080p BRRip AC3 X264 MutzNutz [SD]

  • Category Movies
  • Type HD
  • Language English
  • Total size 3.5 GB
  • Uploaded By MrStark
  • Downloads 580
  • Last checked 8 hours ago
  • Date uploaded 5 days ago
  • Seeders 45
  • Leechers 18

Power Rangers

ActionAdventureScience Fiction

Saban's Power Rangers follows five ordinary teens who must become something extraordinary when they learn that their small town of Angel Grove — and the world — is on the verge of being obliterated by an alien threat. Chosen by destiny, our heroes quickly discover they are the only ones who can save the planet. But to do so, they will have to overcome their real-life issues and before it’s too late, band together as the Power Rangers.

Infohash : 96A3C98B233ABC1F69CDD881B925F3A12551040A



Summary : A group of high-school students, who are infused with unique superpowers, harness their abilities in order to save the world.

Power Rangers 2017 1080p BRRip AC3 X264 MutzNutz



Format                                   : Matroska
Format version                           : Version 2
File size                                : 3.50 GiB
Duration                                 : 2 h 3 min
Overall bit rate                         : 4 037 kb/s
Encoded date                             : UTC 2017-06-17 17:13:52
language                                 : English
source                                   : geckos 1080p ty
subtitles                                : English
http://www.imdb.com/title/tt3717490/

Video
ID                                       : 1
Format                                   : AVC
Format/Info                              : Advanced Video Codec
Format profile                           : [email protected]
Format settings, CABAC                   : Yes
Format settings, ReFrames                : 4 frames
Codec ID                                 : V_MPEG4/ISO/AVC
Duration                                 : 2 h 3 min
Bit rate                                 : 3 398 kb/s
Width                                    : 1 920 pixels
Height                                   : 800 pixels
Display aspect ratio                     : 2.40:1
Frame rate mode                          : Constant
Frame rate                               : 23.976 (24000/1001) FPS
Color space                              : YUV
Chroma subsampling                       : 4:2:0
Bit depth                                : 8 bits
Scan type                                : Progressive
Bits/(Pixel*Frame)                       : 0.092
Stream size                              : 2.94 GiB (84%)
Writing library                          : x264 core 146 r2538 121396c
Default                                  : Yes
Forced                                   : No

Audio
ID                                       : 2
Format                                   : AC-3
Format/Info                              : Audio Coding 3
Format settings, Endianness              : Big
Codec ID                                 : A_AC3
Duration                                 : 2 h 3 min
Bit rate mode                            : Constant
Bit rate                                 : 640 kb/s
Channel(s)                               : 6 channels
Channel positions                        : Front: L C R, Side: L R, LFE
Sampling rate                            : 48.0 kHz
Frame rate                               : 31.250 FPS (1536 spf)
Bit depth                                : 16 bits
Compression mode                         : Lossy
Stream size                              : 568 MiB (16%)
Language                                 : English
Service kind                             : Complete Main
Default                                  : Yes
Forced                                   : No









Files:

www.torrenting.com - Power Rangers 2017 1080p BRRip AC3 X264 MutzNutz
  • english.srt (110.6 KB)
  • MutzNutz.jpg (265.4 KB)
  • Power Rangers 2017 1080p BRRip AC3 X264 MutzNutz.mkv (3.5 GB)
  • Torrent Downloaded From www.torrenting.com.txt (0.1 KB)

There are currently no comments. Feel free to leave one :)

Code:

  • udp://tracker.trackerfix.com:80/announce
  • udp://eddie4.nl:6969/announce
  • udp://tracker.coppersurfer.tk:6969/announce
  • udp://tracker.leechers-paradise.org:6969/announce
  • udp://tracker.zer0day.to:1337/announce
  • udp://tracker.coppersurfer.tk:6969
  • udp://tracker.opentrackr.org:1337/announce
  • udp://tracker.pirateparty.gr:6969/announce
  • udp://9.rarbg.to:2710/announce
  • udp://tracker.trackerfix.com:83/announce
  • udp://9.rarbg.me:2720/announce
  • udp://9.rarbg.to:2730/announce
  • udp://p4p.arenabg.com:1337/announce
  • udp://tracker.leechers-paradise.org:6969
  • udp://tracker.opentrackr.org:1337/announce
  • udp://torrent.gresille.org:80/announce
  • udp://tracker.internetwarriors.net:1337